Tully (2018) 1080p FRENCH BRRip DD5.1 xvid | Prey FRENCH WEBRIP 2018 | Hinos E Marchas

102 Not Out 2018 Hindi 720p WEB-DL x264 ESub [MW]

  • Category Movies
  • Type Bollywood
  • Language Hindi
  • Total size 853.2 MB
  • Uploaded By moviezworldz
  • Downloads 19
  • Last checked 26 minutes ago
  • Date uploaded 26 minutes ago
  • Seeders 0
  • Leechers 0

Infohash : EAF8CB205C18D5464A89D92706CFECA3876C565F





General
Format : Matroska
Format version : Version 4 / Version 2
File size : 853 MiB
Duration : 1 h 43 min
Overall bit rate : 1 149 kb/s

Video
ID : 1
Format : AVC
Format/Info : Advanced Video Codec
Format profile : [email protected]
Format settings : CABAC / 5 Ref Frames
Format settings, CABAC : Yes
Format settings, RefFrames : 5 frames
Codec ID : V_MPEG4/ISO/AVC
Duration : 1 h 43 min
Bit rate : 1 000 kb/s
Width : 1 280 pixels
Height : 544 pixels
Display aspect ratio : 2.35:1
Frame rate mode : Constant
Frame rate : 23.976 (23976/1000) FPS
Color space : YUV
Chroma subsampling : 4:2:0
Bit depth : 8 bits
Scan type : Progressive
Bits/(Pixel*Frame) : 0.060
Stream size : 756 MiB (89%)
Writing library : x264 core 155 r2901 7d0ff22
Default : Yes
Forced : No

Audio
ID : 2
Format : AAC
Format/Info : Advanced Audio Codec
Format profile : LC
Codec ID : A_AAC-2
Duration : 1 h 43 min
Bit rate : 128 kb/s
Channel(s) : 2 channels
Channel positions : Front: L R
Sampling rate : 48.0 kHz
Frame rate : 46.875 FPS (1024 SPF)
Compression mode : Lossy
Stream size : 95.0 MiB (11%)
Language : Hindi
Default : Yes
Forced : No

Text
ID : 3
Format : UTF-8
Codec ID : S_TEXT/UTF8
Codec ID/Info : UTF-8 Plain Text
Duration : 1 h 33 min
Bit rate : 61 b/s
Count of elements : 1369
Stream size : 42.5 KiB (0%)
Language : English
Default : Yes
Forced : No


Click To Enlarge Image







Files:

102 Not Out 2018 Hindi 720p WEB-DL x264 ESub [MW]
  • 102 Not Out 2018 Hindi 720p WEB-DL x264 ESub [MW].mkv (853.2 MB)

There are currently no comments. Feel free to leave one :)

Code:

  • udp://tracker.coppersurfer.tk:6969/announce
  • udp://tracker.pirateparty.gr:6969/announce
  • udp://tracker.coppersurfer.tk:6969/announce
  • udp://tracker.leechers-paradise.org:6969/announce
  • udp://eddie4.nl:6969/announce
  • udp://tracker.tiny-vps.com:6969/announce
  • udp://9.rarbg.me:2800/announce
  • udp://9.rarbg.to:2720/announce
  • udp://public.popcorn-tracker.org:6969/announce
  • udp://open.stealth.si:80/announce
  • udp://tracker.vanitycore.co:6969/announce
  • udp://tracker.opentrackr.org:1337/announce
  • udp://bt.firebit.co.uk:6969/announce
  • udp://shadowshq.yi.org:6969/announce